Genre: Animation \ Action \ Adventure \ Comedy \ Family \ Fantasy Age Rating: PG Quality: HDRip Rating: 8.0
 Lego Batman, le film (2017)
IMDB User Ratings: 8.0 (4287 votes)
Lego Batman, le film 2017 Cover
Director Chris McKay Music Lorne Balfe
Year 2017 Runtime 1 Hour 44 Minutes
Country Denmark, USAProducer Chris McKay
IMDb Ratings: 8.0 Languages English
Genres Animation, Action, Adventure, Comedy, Family, Fantasy CastWill Arnett, Michael Cera, Rosario Dawson, Ralph Fiennes, Siri, Zach Galifianakis
 Summary
There are big changes brewing in Gotham City, and if he wants to save the city from The Joker's hostile takeover, Batman may have to drop the lone vigilante thing, try to work with others and maybe, just maybe, learn to lighten up.


The Lego Batman The Movie (2017) 720p WEBHDRip x264 940MB [Sharmi]



IMDB:-
Code:
http://www.imdb.com/title/tt4116284/
Plot:-

A cooler-than-ever Bruce Wayne must deal with the usual suspects as they plan to rule Gotham City, while discovering that he has accidentally adopted a teenage orphan who wishes to become his sidekick.
Director: Chris McKay
Writers: Seth Grahame-Smith (screenplay), Chris McKenna (screenplay)
Stars: Will Arnett, Michael Cera, Rosario Dawson

Format : Matroska
File size : 942 MiB
Duration : 1 h 44 min
Overall bit rate : 1 260 kb/s

Video
ID : 1
Format : AVC
Format/Info : Advanced Video Codec
Format profile : [email protected]
Format settings, CABAC : Yes
Format settings, ReFrames : 4 frames
Codec ID : V_MPEG4/ISO/AVC
Duration : 1 h 44 min
Bit rate : 1 152 kb/s
Width : 1 280 pixels
Height : 530 pixels
Display aspect ratio : 2.40:1
Frame rate mode : Constant
Frame rate : 23.976 (24000/1001) FPS
Color space : YUV
Chroma subsampling : 4:2:0
Bit depth : 8 bits
Scan type : Progressive
Bits/(Pixel*Frame) : 0.071
Stream size : 844 MiB (90%)
Title : -Sharmi-
Writing library : x264 core 142 r2491 24e4fed

Audio
ID : 2
Format : AAC
Format/Info : Advanced Audio Codec
Format profile : LC
Codec ID : A_AAC
Duration : 1 h 44 min
Bit rate : 128 kb/s
Channel(s) : 2 channels
Channel positions : Front: L R
Sampling rate : 48.0 kHz
Frame rate : 46.875 FPS (1024 spf)
Compression mode : Lossy
Stream size : 95.7 MiB (10%)
Title : -Sharmi-
Language : English
Default : Yes
Forced : No
Screenshots:- Click to Enlarge:-



DIRECT DOWNLOAD FAST:-
Code:
http://clicknupload.link/6s3zxxkd4ljy
(OR)
http://rapidgator.net/file/302a92dac9ec78560305377bd01ce6c7/The.Lego.Batman.The.Movie.2017.720p.WEBHDRip.mkv.html
WATCH ONLINE/ DOWNLOAD:-
Code:
http://estream.to/z86dxq10e555.html
http://thevideo.me/lx1uw2gn04q5
http://vidup.me/mhpta0u8drfj
http://streamcrypt.net/flashx.tv/45c5f5730049ecdd59cc0f8e5028a7a766e240c236a29854376e6b973afcd910
http://www.flashx.tv/6yv4uc99socr.html
If you like my post, don't forget to say Thanks.