Genre: Fantasy \ Musical \ Romance Quality: BluRay
 Beauty and the Beast (2017)
IMDB User Ratings: 0 (0 votes)
Beauty and the Beast 2017 Cover
Director Bill Condon Music Alan Menken
Year 2017 Runtime
Country Producer Bill Condon
IMDb Ratings: 0 Languages
Genres Fantasy, Musical, Romance CastEmma Watson, Dan Stevens, Luke Evans, Ewan McGregor, Gugu Mbatha-Raw, Ian McKellen
 Summary
An adaptation of the classic fairy-tale about a monstrous prince and a young woman who fall in love.


Beauty And The Beast (2017) 720p Bluray 1GB x264 ENG-Subs [Sharmi]



IMDB:-
Code:
http://www.imdb.com/title/tt2771200/
Plot:-

An adaptation of the fairy tale about a monstrous-looking prince and a young woman who fall in love.
Director: Bill Condon
Writers: Stephen Chbosky (screenplay), Evan Spiliotopoulos (screenplay)
Stars: Emma Watson, Dan Stevens, Luke Evans

Format : Matroska
Format version : Version 4 / Version 2
File size : 1.16 GiB
Duration : 2 h 9 min
Overall bit rate : 1 281 kb/s

Video
ID : 1
Format : AVC
Format/Info : Advanced Video Codec
Format profile : [email protected]
Format settings, CABAC : Yes
Format settings, ReFrames : 4 frames
Codec ID : V_MPEG4/ISO/AVC
Duration : 2 h 9 min
Bit rate : 1 152 kb/s
Width : 1 280 pixels
Height : 536 pixels
Display aspect ratio : 2.40:1
Frame rate mode : Constant
Frame rate : 23.976 (24000/1001) FPS
Color space : YUV
Chroma subsampling : 4:2:0
Bit depth : 8 bits
Scan type : Progressive
Bits/(Pixel*Frame) : 0.070
Stream size : 1.04 GiB (90%)
Title : -Sharmi-
Writing library : x264 core 142 r2491 24e4fed

Audio
ID : 2
Format : AAC
Format/Info : Advanced Audio Codec
Format profile : LC
Codec ID : A_AAC
Duration : 2 h 9 min
Bit rate : 128 kb/s
Channel(s) : 2 channels
Channel positions : Front: L R
Sampling rate : 48.0 kHz
Frame rate : 46.875 FPS (1024 spf)
Compression mode : Lossy
Stream size : 118 MiB (10%)
Title : -Sharmi-
Language : English
Default : Yes
Screenshots:- CLick to Enlarge



ENGLISH SUBTITLE:-
Code:
http://clicknupload.link/19gw931avfml
DIRECT DOWNLOAD FAST:-
Code:
http://clicknupload.link/a6aejq6skgqg
(OR)
http://rapidgator.net/file/548ed4f98db4f58b058ebedc3fab7e91/Beauty.And.The.Beast.2017.720p.Bluray.mkv.html
WATCH ONLINE/ DOWNLOAD:-With English Subs
Code:
http://thevideo.me/xigl1jxzdixf
http://estream.to/u4tb1mn4h2ly.html
http://vidup.me/gqeqsfdosicp
http://streamcrypt.net/flashx.tv/560254cb805cdde3a553fa52deb3e2d199593c54aa865751c09559b557bf1b1f
http://www.flashx.tv/ocllc3cd1be9.html
If you like my post, don't forget to say Thanks.